MP4 file is played in double speed on Android6.0 BETA3

Discussion in 'Android' started by hiro.kaneko, Jul 12, 2016.

  1. hiro.kaneko

    hiro.kaneko New Member

    Joined:
    Jul 24, 2014
    Messages:
    12
    Likes Received:
    0
    I am using Android 6.0 beta3 on UDOO quad. When I use Gallery APP, MP4 file is played in double speed.
    Is it Bug ?
     
  2. Andrea Rovai

    Andrea Rovai Well-Known Member

    Joined:
    Oct 27, 2014
    Messages:
    1,703
    Likes Received:
    240
    For us it doesn't work at double speed. Can you give us more info? Have you changed something?
     
  3. hiro.kaneko

    hiro.kaneko New Member

    Joined:
    Jul 24, 2014
    Messages:
    12
    Likes Received:
    0
    After having installed Android 6.0, I only transferred my mp4 file in Download directory using AndSMB app.
    Then, I played the mp4 file by Gallery app.
    However, It was not able to play normally, play at speed of about 2 times.
    The detail of my mp4 file is the following
    -----
    Format : MPEG-4
    Format profile : Base Media / Version 2
    Codec ID : mp42
    File size : 11.5 MiB
    Duration : 15.17sec
    Overall bit rate : 6 422 Kbps
    Encoded date : UTC 2016-06-08 02:25:40
    Tagged date : UTC 2016-06-09 02:28:21
    Writing application : Sorenson Squeeze
    Comment : Encoded by HAYATE Inc.

    VIDEO
    ID : 2
    Format : AVC
    Format/Info : Advanced Video Codec
    Format profile : High@L4
    Format settings, CABAC : yes
    Format settings, ReFrames : 4 frame
    Codec ID : avc1
    Codec ID/Info : Advanced Video Coding
    Duration : 14.98sec
    Bit rate : 6 000 Kbps
    Width : 1 920 px
    Height : 1 080 px
    Display aspect ratio : 16:9
    Frame rate mode : CFR mode
    Frame rate : 29.970 fps
    Color space : YUV
    Chroma subsampling : 4:2:0
    Bit depth : 8 bit
    Scan type : progressive(PPF)
    Bits/(Pixel*Frame) : 0.097
    Stream size : 11.0 MiB (96%)
    Writing library : x264 core 129
    Encoding settings : cabac=1 / ref=3 / deblock=1:0:0 / analyse=0x3:0x113 / me=hex / subme=7 / psy=1 / psy_rd=1.00:0.00 / mixed_ref=1 / me_range=16 / chroma_me=1 / trellis=1 / 8x8dct=1 / cqm=0 / deadzone=21,11 / fast_pskip=1 / chroma_qp_offset=-2 / threads=3 / lookahead_threads=1 / sliced_threads=0 / nr=0 / decimate=1 / interlaced=0 / bluray_compat=0 / constrained_intra=0 / bframes=3 / b_pyramid=2 / b_adapt=1 / b_bias=0 / direct=1 / weightb=1 / open_gop=0 / weightp=2 / keyint=300 / keyint_min=29 / scenecut=50 / intra_refresh=0 / rc_lookahead=40 / rc=2pass / mbtree=1 / bitrate=6000 / ratetol=60.0 / qcomp=0.60 / qpmin=0 / qpmax=69 / qpstep=4 / cplxblur=20.0 / qblur=0.5 / ip_ratio=1.40 / aq=1:1.00
    Encoded date : UTC 2016-06-08 02:25:40
    Tagged date : UTC 2016-06-08 02:25:40

    AUDIO
    ID : 1
    Format : AAC
    Format/Info : Advanced Audio Codec
    Format profile : LC
    Codec ID : 40
    Duration : 15.17sec
    Bit rate mode : CBR mode
    Bit rate : 256 Kbps
    Channel(s) : 2 channel
    Channel positions : Front: L R
    Sampling rate : 44.1 KHz
    Stream size : 471 KiB (4%)
    Encoded date : UTC 2016-06-08 02:25:40
    Tagged date : UTC 2016-06-08 02:25:40

    ETC #1
    ID : 3
    Type : Scene description
    Format : System Core
    Codec ID : 2
    Duration : 15.17sec
    Encode date : UTC 2016-06-08 02:28:21
    Tag attach : UTC 2016-06-08 02:28:21

    ETC #2
    ID : 4
    Type : Object description
    Format : System
    Codec ID : 1
    Duration : 15.17sec
    Encode date : UTC 2016-06-08 02:28:21
    Tag attach : UTC 2016-06-08 02:28:21
     
  4. Andrea Rovai

    Andrea Rovai Well-Known Member

    Joined:
    Oct 27, 2014
    Messages:
    1,703
    Likes Received:
    240
    Do you encounter this problem only with that specific video? We've never experienced this problem before.
     
  5. hiro.kaneko

    hiro.kaneko New Member

    Joined:
    Jul 24, 2014
    Messages:
    12
    Likes Received:
    0
    Please try an attached video file.
    This file is usually played in 15 seconds. However, it is played in about 7 seconds by BEAT3.
    Please play this file right after BETA3 was booted.
     
  6. hiro.kaneko

    hiro.kaneko New Member

    Joined:
    Jul 24, 2014
    Messages:
    12
    Likes Received:
    0
    Output is HDMI.
     
  7. hiro.kaneko

    hiro.kaneko New Member

    Joined:
    Jul 24, 2014
    Messages:
    12
    Likes Received:
    0
    When I use the HDMI only , this trouble seems to occur. I tried Beta4, however not solve.
     
  8. maggu2810

    maggu2810 New Member

    Joined:
    Aug 5, 2016
    Messages:
    3
    Likes Received:
    0
    I can confirm this issue watching videos using the Netflix app.
     
  9. ManicLalo

    ManicLalo New Member

    Joined:
    Sep 29, 2016
    Messages:
    8
    Likes Received:
    0
    I don't have an issue with mp4 files, but I do have it with the Netflix app
     
  10. Francesco

    Francesco Active Member

    Joined:
    Jun 23, 2015
    Messages:
    220
    Likes Received:
    110
    Thank you for the report, I will download the video and investigate.
     
    Andrea Rovai likes this.
  11. Slushpuppisan

    Slushpuppisan New Member

    Joined:
    Nov 9, 2014
    Messages:
    6
    Likes Received:
    0
    I have the same problem. I went to Youtube in chrome and video played at normal speed. I tried a couple of netflix movies and they both sounded like chipmunks talking.
     
  12. Francesco

    Francesco Active Member

    Joined:
    Jun 23, 2015
    Messages:
    220
    Likes Received:
    110
    Hi. Could you please send me a couple of links to files with such issue?
     
  13. MPC105

    MPC105 New Member

    Joined:
    Jan 13, 2017
    Messages:
    1
    Likes Received:
    0
    Same or very similar problem. I have just setup Udoo Quad/Dual with the latest Udoo Android. All I wanted was to watch Netflix. HDMI is my method. Video pauses about every 5 seconds with estimated 30 mbps wireless and the sound is like chipmunks singing at high speed. I think many are having this problem. Can Netflix work on a quad/dual setup?
     
  14. Slushpuppisan

    Slushpuppisan New Member

    Joined:
    Nov 9, 2014
    Messages:
    6
    Likes Received:
    0
    Bump! Has there been any progress on this? Will there be an Android update in the nearish future?
     
  15. Andrea Rovai

    Andrea Rovai Well-Known Member

    Joined:
    Oct 27, 2014
    Messages:
    1,703
    Likes Received:
    240
    @Slushpuppisan hi, there's been no progress on this. For the moment no update of Android for UDOO Dual/Quad is in the pipeline.
    @MPC105 I know you cannot believe me, but we haven't been able to reproduce the problem so far, and we don't know how to help you in this regard.
     
  16. jerichodee

    jerichodee UDOOer

    Joined:
    Jan 5, 2014
    Messages:
    17
    Likes Received:
    1
    Has there been any progress on this Netflix playing in 2X speed? I also have tried the Android 6.0.1 R2 release and I'm also getting 2X audio/video speed using the Netflix.apk on my Udoo Quad on a 15" LVDS Touch screen. Are there any plans to release Android 7.x at all?
     

Share This Page